Jonas Hellborg - Bass (1988)

Discussion in 'Music' started by ghost1980, Apr 16, 2019 at 12:43 AM.

  1. ghost1980

    ghost1980 Well-Known Member

    Joined:
    Sep 25, 2018
    Messages:
    19,688
    Likes Received:
    0
    Gender:
    Male
    [​IMG]



    Artist: Jonas Hellborg
    Title: Bass
    Year Of Release: 1988
    Label: Day Eight Music[DEM CD 009]
    Genre: Jazz, Jazz Rock
    Quality: FLAC (tracks + .cue,log,scans)
    Total Time: 44:45
    Total Size: 224 MB(+3%)




    ]Tracklist
    1. Song For You 4:46
    2. No Place To Go 4:27
    3. Moby Dick 3:44
    4. Choui 6:03
    5. Moon 3:46
    6. Jaco 3:16
    7. Blues For LW 1:52
    8. Woke Up With A Train In My Garden 4:35
    9. Zakir 5:52
    10. Shine 3:04
    11. Movers And Shakers 3:20
    personnel :
    Drums [Ludwig], Cymbal [Zildjan] - Ginger Baker
    Guitar - Robert Blennerhed
    Programmed Additional - Kenneth Rasmusson
    Synthesizer [Roland S50, DX7, Polymoog, Minimoog, Korg DSS1], Electric Organ [Hammond] - Bernie Worrell
    Voice - Bernard Fowler
    Voice, Drum [Claydrum] - Kader
    Electric Bass [Wal Basses],Produced by - Jonas Hellborg
    [​IMG]
    Exact Audio Copy V1.3 from 2. September 2016
    Отчёт EAC об извлечении, выполненном 13. апреля 2019, 0:45
    Jonas Hellborg / Bass - 1988
    Дисковод: PIONEER BD-RW BDR-TD03 Adapter: 1 ID: 0
    Режим чтения : Достоверность
    Использование точного потока : Да
    Отключение кэша аудио : Да
    Использование указателей C2 : Нет
    Коррекция смещения при чтении : 667
    Способность читать области Lead-in и Lead-out : Нет
    Заполнение пропущенных сэмплов тишиной : Да
    Удаление блоков с тишиной в начале и конце : Нет

    При вычислениях CRC использовались нулевые сэмплы : Да
    Интерфейс : Встроенный Win32-интерфейс для Win NT/2000
    Выходной формат : Пользовательский кодировщик
    Выбранный битрейт : 128 kBit/s
    Качество : Высокий
    Добавление ID3-тега : Нет
    Утилита сжатия : C:\Program Files (x86)\Exact Audio Copy\Flac\flac.exe
    Дополнительные параметры : -V -8 -T "Date=%year%" -T "Genre=%genre%" %source%
    TOC извлечённого CD
    Трек | Старт | Длительность | Начальный сектор | Конечный сектор
    ---------------------------------------------------------------------
    1 | 0:00.00 | 4:49.22 | 0 | 21696
    2 | 4:49.22 | 4:30.13 | 21697 | 41959
    3 | 9:19.35 | 3:47.60 | 41960 | 59044
    4 | 13:07.20 | 5:53.15 | 59045 | 85534
    5 | 19:00.35 | 3:47.02 | 85535 | 102561
    6 | 22:47.37 | 3:12.40 | 102562 | 117001
    7 | 26:00.02 | 1:53.25 | 117002 | 125501
    8 | 27:53.27 | 4:35.40 | 125502 | 146166
    9 | 32:28.67 | 5:50.73 | 146167 | 172489
    10 | 38:19.65 | 3:19.10 | 172490 | 187424
    11 | 41:39.00 | 3:06.07 | 187425 | 201381
    Характеристики диапазона извлечения и сообщения об ошибках
    Выбранный диапазон
    Имя файла I:\Rip\Jonas Hellborg - Bass - 1988\Jonas Hellborg - Bass - 1988.wav
    Пиковый уровень 99.9 %
    Скорость извлечения 4.2 X
    Качество диапазона 100.0 %
    CRC теста C9417BCF
    CRC копии C9417BCF
    Копирование... OK
    Ошибок не произошло

    AccurateRip: сводка

    Трек 1 : извлечено точно (доверие 8) [F70CADC2] (AR v2)
    Трек 2 : извлечено точно (доверие 9) [CAD6388D] (AR v2)
    Трек 3 : извлечено точно (доверие 9) [CFF4E8A4] (AR v2)
    Трек 4 : извлечено точно (доверие 10) [62963B66] (AR v2)
    Трек 5 : извлечено точно (доверие 9) [F7D3B323] (AR v2)
    Трек 6 : извлечено точно (доверие 10) [7CD33063] (AR v2)
    Трек 7 : извлечено точно (доверие 11) [23BDBAA3] (AR v2)
    Трек 8 : извлечено точно (доверие 11) [6617A411] (AR v2)
    Трек 9 : извлечено точно (доверие 11) [CB1671F4] (AR v2)
    Трек 10 : извлечено точно (доверие 11) [9F696CD4] (AR v2)
    Трек 11 : извлечено точно (доверие 10) [F9398FB8] (AR v2)

    Все треки извлечены точно
    Конец отчёта
    ---- CUETools DB Plugin V2.1.6
    [CTDB TOCID: vCgOVDuZ6EBkw2M7zfji3fHNEHE-] found
    Submit result: vCgOVDuZ6EBkw2M7zfji3fHNEHE- has been confirmed
    Track | CTDB Status
    1 | (26/27) Accurately ripped
    2 | (26/27) Accurately ripped
    3 | (26/27) Accurately ripped
    4 | (27/27) Accurately ripped
    5 | (26/27) Accurately ripped
    6 | (27/27) Accurately ripped
    7 | (27/27) Accurately ripped
    8 | (27/27) Accurately ripped
    9 | (27/27) Accurately ripped
    10 | (27/27) Accurately ripped
    11 | (26/27) Accurately ripped
    ==== Контрольная сумма отчёта C77614F184B408ED368810CF4A100480CF541054DCC39AD088BF651351081C5F ====

    Recommend Download Link Hight Speed | Please Say Thanks Keep Topic Live
    Code:
    Uploadgig
    https://uploadgig.com/file/download/891bee99Ea888989/096fa.Jonas.Hellborg..Bass.1988.rar
    Download ( Rapidgator )
    https://rapidgator.net/file/9d84c2825fe5fb77e98185b170bf8cd5/096fa.Jonas.Hellborg..Bass.1988.rar